Abenteuer
HardstyleTransparent
Films & Vidéos

18+.Escorts.2015.480p.WEBRip. English.AAC.LLG

  • Category Movies
  • Type HD
  • Language English
  • Total size 349.3 MB
  • Uploaded By LifeLongg
  • Downloads 1114
  • Last checked 8 minutes ago
  • Date uploaded 1 day ago
  • Seeders 11
  • Leechers 6

Infohash : 9AAAE4813A6B49C99BDC5DFC4AD2EC7A81CB30FB





******************************Thumbnail:**********************



******************************Screenshots:********************

Screenshot 1

Screenshot 2

Screenshot 3

Screenshot 4

Screenshot 5

Screenshot 6

Screenshot 7

Screenshot 8

Screenshot 9

Screenshot 0

**************************************************************

Complete name : 18+.Escorts.2015.480p.WEBRip.English.AAC.LLG.mp4
Format : MPEG-4
Format profile : Base Media
Codec ID : isom (isom/iso2/avc1/mp41)
File size : 342 MiB
Duration : 46 min 26 s
Overall bit rate : 1 028 kb/s
Writing application : Lavf57.56.101

Video
ID : 1
Format : AVC
Format/Info : Advanced Video Codec
Format profile : [email protected]
Format settings : CABAC / 4 Ref Frames
Format settings, CABAC : Yes
Format settings, RefFrames : 4 frames
Codec ID : avc1
Codec ID/Info : Advanced Video Coding
Duration : 46 min 26 s
Bit rate : 900 kb/s
Width : 720 pixels
Height : 404 pixels
Display aspect ratio : 16:9
Frame rate mode : Constant
Frame rate : 29.970 (29970/1000) FPS
Color space : YUV
Chroma subsampling : 4:2:0
Bit depth : 8 bits
Scan type : Progressive
Bits/(Pixel*Frame) : 0.103
Stream size : 296 MiB (87%)

Audio
ID : 2
Format : AAC
Format/Info : Advanced Audio Codec
Format profile : LC
Codec ID : mp4a-40-2
Duration : 46 min 26 s
Bit rate mode : Constant
Bit rate : 129 kb/s
Channel(s) : 2 channels
Channel positions : Front: L R
Sampling rate : 48.0 kHz
Frame rate : 46.875 FPS (1024 SPF)
Compression mode : Lossy
Stream size : 42.7 MiB (13%)
Default : Yes
Alternate group : 1

Files:

18+.Escorts.2015.480p.WEBRip. English.AAC.LLG
  • Sample.mp4 (7.7 MB)
  • 18+.Escorts.2015.480p.WEBRip. English.AAC.LLG.mp4 (341.5 MB)

There are currently no comments. Feel free to leave one :)

Code:

  • udp://tracker.openbittorrent.com:80/announce
  • udp://tracker.opentrackr.org:1337/announce
  • UDP://TRACKER.LEECHERS-PARADISE.ORG:6969/ANNOUNCE