Mysteries and Thrillers
Steve TomOstatni post
Berllioz and Zoy - Live at Lisboa Electronica 2018 (Lisboa, Portugal) - 06-Apr-2018

Rampage.2018.720p.NEW.HDCAM.X264.HQMic.LLG

  • Category Movies
  • Type h.264/x264
  • Language English
  • Total size 1.2 GB
  • Uploaded By LifeLongg
  • Downloads 399
  • Last checked 22 minutes ago
  • Date uploaded 2 days ago
  • Seeders 47
  • Leechers 31

Rampage

ActionAdventureScience Fiction

Primatologist Davis Okoye shares an unshakable bond with George, the extraordinarily intelligent, silverback gorilla who has been in his care since birth. But a rogue genetic experiment gone awry mutates this gentle ape into a raging creature of enormous size. To make matters worse, it’s soon discovered there are other similarly altered animals. As these newly created alpha predators tear across North America, destroying everything in their path, Okoye teams with a discredited genetic engineer to secure an antidote, fighting his way through an ever-changing battlefield, not only to halt a global catastrophe but to save the fearsome creature that was once his friend.

Infohash : 8394C7DFB862E1E5B26007BBA8837EB2B44ACC5D





******************************Thumbnail:**********************



******************************Screenshots:********************

Screenshot 1

Screenshot 2

Screenshot 3

Screenshot 4

Screenshot 5

Screenshot 6

Screenshot 7

Screenshot 8

Screenshot 9

Screenshot 0

**************************************************************

Complete name : Rampage.2018.720p.NEW.HDCAM.X264.HQMic.LLG.mp4
Format : MPEG-4
Format profile : Base Media
Codec ID : isom (isom/iso2/avc1/mp41)
File size : 1.14 GiB
Duration : 1 h 40 min
Overall bit rate : 1 636 kb/s
Writing application : Lavf57.56.101

Video
ID : 1
Format : AVC
Format/Info : Advanced Video Codec
Format profile : [email protected]
Format settings : CABAC / 4 Ref Frames
Format settings, CABAC : Yes
Format settings, RefFrames : 4 frames
Codec ID : avc1
Codec ID/Info : Advanced Video Coding
Duration : 1 h 40 min
Bit rate : 1 500 kb/s
Width : 1 280 pixels
Height : 608 pixels
Display aspect ratio : 2.105
Frame rate mode : Constant
Frame rate : 23.976 (23976/1000) FPS
Color space : YUV
Chroma subsampling : 4:2:0
Bit depth : 8 bits
Scan type : Progressive
Bits/(Pixel*Frame) : 0.080
Stream size : 1.05 GiB (92%)

Audio
ID : 2
Format : MPEG Audio
Format version : Version 1
Format profile : Layer 3
Format settings : Joint stereo / MS Stereo
Codec ID : mp4a-6B
Duration : 1 h 40 min
Bit rate mode : Constant
Bit rate : 128 kb/s
Channel(s) : 2 channels
Sampling rate : 44.1 kHz
Compression mode : Lossy
Stream size : 91.6 MiB (8%)
Writing library : LAME3.99.5
Default : Yes
Alternate group : 1

Files:

Rampage.2018.720p.NEW.HDCAM.X264.HQMic.LLG
  • Sample.ts (12.2 MB)
  • Rampage.2018.720p.NEW.HDCAM.X264.HQMic.LLG.mp4 (1.1 GB)

There are currently no comments. Feel free to leave one :)

Code:

  • udp://tracker.openbittorrent.com:80/announce
  • udp://tracker.opentrackr.org:1337/announce
  • UDP://TRACKER.LEECHERS-PARADISE.ORG:6969/ANNOUNCE